Agnes Obel - Myopia (2020) [24bit Hi-Res]

  • Category Music
  • Type Lossless
  • Language English
  • Total size 407.3 MB
  • Uploaded By was95was
  • Downloads 177
  • Last checked 57 minutes ago
  • Date uploaded 4 days ago
  • Seeders 27
  • Leechers 5

Infohash : 3EA222140B12E9912EDE1A51213D4B5158E39EDF



Quality-Lossless
Release-2020
Duration-00:39:47
File Size-427 MB
Genre-Alternative
Cover Size-1280px

----------------------------------------------------------------------------------------------
Analyzed: Myopia / Artist: Agnes Obel
----------------------------------------------------------------------------------------------
DR Peak RMS Duration Title [codec]
----------------------------------------------------------------------------------------------
DR9 -0.00 dB -11.92 dB 4:42 01 - Camera's Rolling [flac]
DR9 -0.00 dB -11.06 dB 4:54 02 - Broken Sleep [flac]
DR9 -0.00 dB -11.52 dB 5:29 03 - Island Of Doom [flac]
DR12 -0.10 dB -18.37 dB 2:16 04 - Roscian [flac]
DR8 -0.00 dB -10.41 dB 5:16 05 - Myopia [flac]
DR10 -0.00 dB -16.60 dB 2:27 06 - Drosera [flac]
DR10 -0.00 dB -11.96 dB 3:25 07 - Can't Be [flac]
DR9 -0.01 dB -14.17 dB 2:29 08 - Parliament Of Owls [flac]
DR8 -0.00 dB -11.85 dB 4:29 09 - Promise Keeper [flac]
DR9 -0.00 dB -13.97 dB 4:16 10 - Won't You Call Me [flac]
----------------------------------------------------------------------------------------------
Number of files: 10
Official DR value: DR9

Sampling rate: 44100 Hz
Average bitrate: 1413kbs
Bits per sample: 24 bit

Files:

Agnes Obel - Myopia (2020) [24bit Hi-Res]
  • 01 - Camera's Rolling.flac (48.2 MB)
  • 02 - Broken Sleep.flac (52.1 MB)
  • 03 - Island Of Doom.flac (56.7 MB)
  • 04 - Roscian.flac (19.2 MB)
  • 05 - Myopia.flac (56.7 MB)
  • 06 - Drosera.flac (23.9 MB)
  • 07 - Can't Be.flac (36.4 MB)
  • 08 - Parliament Of Owls.flac (26.9 MB)
  • 09 - Promise Keeper.flac (46.2 MB)
  • 10 - Won't You Call Me.flac (40.8 MB)
  • cover.jpg (109.4 KB)
  • dr14.txt (1.3 KB)

There are currently no comments. Feel free to leave one :)

Code:

  • udp://tracker.piratepublic.com:1337/announce
  • udp://tracker.pirateparty.gr:6969/announce
  • udp://tracker.coppersurfer.tk:6969/announce
  • udp://tracker.leechers-paradise.org:6969/announce
  • udp://9.rarbg.com:2710/announce
  • http://p4p.arenabg.com:1337/announce
  • http://explodie.org:6969/announce
  • udp://tracker.opentrackr.org:1337/announce
  • udp://exodus.desync.com:6969/announce
  • udp://tracker.leechers-paradise.org:6969/announce
  • udp://tracker.zer0day.to:1337/announce
  • udp://open.demonii.si:1337/announce
  • udp://exodus.desync.com:6969/announce
  • udp://tracker.iamhansen.xyz:2000/announce