Scooby-Doo! Mask of the Blue Falcon (2012) (1080p BDRip x265 10bi...

  • Category Movies
  • Type HEVC/x265
  • Language English
  • Total size 2.0 GB
  • Uploaded By Goki
  • Downloads 409
  • Last checked 21 minutes ago
  • Date uploaded 3 days ago
  • Seeders 15
  • Leechers 13

Scooby-Doo! Mask of the Blue Falcon

AdventureAnimationComedyFantasyFamily

The Mega Mondo Pop Cartoon-a-Con in sunny California marks the spot for mystery in this all-new original Scooby-Doo adventure! Herculoids Frankenstein Jr. and Space Ghost are just a few of the celebrated comic book characters headlining at the unconventional convention plus there's a megabucks movie premiere starring Scooby-Doo and Shaggy's all-time favorite super heroes Blue Falcon and Dynomutt! So when the gruesome villain Mr. Hyde unleashes monster bats howling hounds and sinister slime upon the festivities it's time for Mystery Incorporated to follow the clues and set their monster traps. But it's the pizza-snacking super-powered tag team of Shaggy and Scooby-Doo who tap into their inner super hero to prevent the entire event from being smothered in ghoulish green goo! Like right on Dog Wonder!

Infohash : 4C97525523C16E98C0AE4BA0C5CE65182999800B






Scooby-Doo! Mask of the Blue Falcon (2012) IMDB











Media Information



Unique ID : 207827060231405908227833879370156133789 (0x9C5A092DD12D51122AA5490795DACD9D)
Complete name : Scooby-Doo! Mask of the Blue Falcon (2012) (1080p BDRip x265 10bit EAC3 5.1 - Goki)[TAoE].mkv
Format : Matroska
Format version : Version 4
File size : 2.01 GiB
Duration : 1 h 16 min
Overall bit rate : 3 764 kb/s
Movie name : Scooby-Doo! Mask of the Blue Falcon (2012) (1080p BDRip x265 10bit EAC3 5.1 - Goki)[TAoE].mkv
Encoded date : UTC 2020-02-21 12:26:49
Writing application : mkvmerge v28.2.0 ('The Awakening') 64-bit
Writing library : libebml v1.3.6 + libmatroska v1.4.9

Video
ID : 1
Format : HEVC
Format/Info : High Efficiency Video Coding
Format profile : Main [email protected]@Main
Codec ID : V_MPEGH/ISO/HEVC
Duration : 1 h 16 min
Bit rate : 3 276 kb/s
Width : 1 920 pixels
Height : 1 080 pixels
Display aspect ratio : 16:9
Frame rate mode : Constant
Frame rate : 23.976 (24000/1001) FPS
Color space : YUV
Chroma subsampling : 4:2:0
Bit depth : 10 bits
Bits/(Pixel*Frame) : 0.066
Stream size : 1.75 GiB (87%)
Writing library : x265 3.2.1+3-b4b2ecac21f6:[Windows][MSVC 1924][64 bit] 10bit
Encoding settings : cpuid=1111039 / frame-threads=2 / numa-pools=6 / wpp / no-pmode / no-pme / no-psnr / no-ssim / log-level=2 / input-csp=1 / input-res=1920x1080 / interlace=0 / total-frames=0 / level-idc=0 / high-tier=1 / uhd-bd=0 / ref=4 / no-allow-non-conformance / no-repeat-headers / annexb / no-aud / no-hrd / info / hash=0 / no-temporal-layers / open-gop / min-keyint=23 / keyint=250 / gop-lookahead=0 / bframes=8 / b-adapt=2 / b-pyramid / bframe-bias=0 / rc-lookahead=80 / lookahead-slices=4 / scenecut=40 / radl=0 / no-splice / no-intra-refresh / ctu=64 / min-cu-size=8 / no-rect / no-amp / max-tu-size=32 / tu-inter-depth=1 / tu-intra-depth=1 / limit-tu=0 / rdoq-level=2 / dynamic-rd=0.00 / no-ssim-rd / signhide / no-tskip / nr-intra=0 / nr-inter=0 / no-constrained-intra / no-strong-intra-smoothing / max-merge=3 / limit-refs=3 / limit-modes / me=3 / subme=5 / merange=57 / temporal-mvp / no-hme / weightp / no-weightb / no-analyze-src-pics / deblock=0:0 / sao / no-sao-non-deblock / rd=4 / selective-sao=4 / no-early-skip / rskip / no-fast-intra / no-tskip-fast / no-cu-lossless / no-b-intra / no-splitrd-skip / rdpenalty=0 / psy-rd=1.30 / psy-rdoq=2.00 / no-rd-refine / no-lossless / cbqpoffs=0 / crqpoffs=0 / rc=crf / crf=19.5 / qcomp=0.60 / qpstep=4 / stats-write=0 / stats-read=0 / ipratio=1.40 / pbratio=1.30 / aq-mode=2 / aq-strength=1.10 / cutree / zone-count=0 / no-strict-cbr / qg-size=32 / no-rc-grain / qpmax=69 / qpmin=0 / no-const-vbv / sar=1 / overscan=0 / videoformat=5 / range=0 / colorprim=2 / transfer=2 / colormatrix=2 / chromaloc=0 / display-window=0 / cll=0,0 / min-luma=0 / max-luma=1023 / log2-max-poc-lsb=8 / vui-timing-info / vui-hrd-info / slices=1 / no-opt-qp-pps / no-opt-ref-list-length-pps / no-multi-pass-opt-rps / scenecut-bias=0.05 / no-opt-cu-delta-qp / no-aq-motion / no-hdr / no-hdr-opt / no-dhdr10-opt / no-idr-recovery-sei / analysis-reuse-level=5 / scale-factor=0 / refine-intra=0 / refine-inter=0 / refine-mv=1 / refine-ctu-distortion=0 / no-limit-sao / ctu-info=0 / no-lowpass-dct / refine-analysis-type=0 / copy-pic=1 / max-ausize-factor=1.0 / no-dynamic-refine / no-single-sei / no-hevc-aq / no-svt / no-field / qp-adaptation-range=1.00
Language : English
Default : Yes
Forced : No

Audio
ID : 2
Format : E-AC-3
Format/Info : Enhanced AC-3
Commercial name : Dolby Digital Plus
Codec ID : A_EAC3
Duration : 1 h 16 min
Bit rate mode : Constant
Bit rate : 448 kb/s
Channel(s) : 6 channels
Channel layout : L R C LFE Ls Rs
Sampling rate : 48.0 kHz
Frame rate : 31.250 FPS (1536 SPF)
Compression mode : Lossy
Stream size : 245 MiB (12%)
Title : Surround 5.1
Language : English
Service kind : Complete Main
Default : Yes
Forced : No

Text #1
ID : 3
Format : UTF-8
Codec ID : S_TEXT/UTF8
Codec ID/Info : UTF-8 Plain Text
Duration : 1 h 15 min
Bit rate : 71 b/s
Count of elements : 1136
Stream size : 39.9 KiB (0%)
Language : English
Default : No
Forced : No

Text #2
ID : 4
Format : PGS
Codec ID : S_HDMV/PGS
Codec ID/Info : Picture based subtitle format used on BDs/HD-DVDs
Duration : 1 h 15 min
Bit rate : 39.2 kb/s
Count of elements : 2272
Stream size : 21.3 MiB (1%)
Language : English
Default : No
Forced : No

Text #3
ID : 5
Format : UTF-8
Codec ID : S_TEXT/UTF8
Codec ID/Info : UTF-8 Plain Text
Duration : 1 h 16 min
Bit rate : 72 b/s
Count of elements : 979
Stream size : 40.2 KiB (0%)
Language : French
Default : No
Forced : No

Text #4
ID : 6
Format : UTF-8
Codec ID : S_TEXT/UTF8
Codec ID/Info : UTF-8 Plain Text
Duration : 1 h 16 min
Bit rate : 51 b/s
Count of elements : 824
Stream size : 28.7 KiB (0%)
Language : Polish
Default : No
Forced : No

Menu
00:00:00.000 : :Chapter 01
00:10:52.360 : :Chapter 02
00:19:42.181 : :Chapter 03
00:30:32.288 : :Chapter 04
00:40:07.988 : :Chapter 05
00:51:15.906 : :Chapter 06
01:01:13.461 : :Chapter 07
01:12:12.244 : :Chapter 08
01:13:47.881 : :Chapter 09

Source Information



Unique ID : 126575772071595621965411896392397083426 (0x5F399B622ACAE11AF69DAEB9BA2BD322)
Complete name : Scooby-Doo! Mask Of The Blue Falcon Original Movie_t01.mkv
Format : Matroska
Format version : Version 2
File size : 11.5 GiB
Duration : 1 h 16 min
Overall bit rate mode : Variable
Overall bit rate : 21.6 Mb/s
Movie name : Scooby-Doo! Mask Of The Blue Falcon Original Movie
Encoded date : UTC 2020-02-21 04:58:58
Writing application : MakeMKV v1.14.4 win(x64-release)
Writing library : libmakemkv v1.14.4 (1.3.5/1.4.7) win(x64-release)

Video
ID : 1
ID in the original source medium : 4113 (0x1011)
Format : AVC
Format/Info : Advanced Video Codec
Format profile : [email protected]
Format settings : CABAC / 2 Ref Frames
Format settings, CABAC : Yes
Format settings, Reference frames : 2 frames
Format settings, GOP : M=1, N=10
Codec ID : V_MPEG4/ISO/AVC
Duration : 1 h 16 min
Bit rate mode : Variable
Bit rate : 15.9 Mb/s
Width : 1 920 pixels
Height : 1 080 pixels
Display aspect ratio : 16:9
Frame rate mode : Constant
Frame rate : 23.976 (24000/1001) FPS
Color space : YUV
Chroma subsampling : 4:2:0
Bit depth : 8 bits
Scan type : Progressive
Bits/(Pixel*Frame) : 0.320
Stream size : 8.50 GiB (74%)
Language : English
Default : No
Forced : No
Original source medium : Blu-ray

Audio #1
ID : 2
ID in the original source medium : 4352 (0x1100)
Format : DTS XLL
Format/Info : Digital Theater Systems
Commercial name : DTS-HD Master Audio
Codec ID : A_DTS
Duration : 1 h 16 min
Bit rate mode : Variable
Bit rate : 3 868 kb/s
Channel(s) : 6 channels
Channel layout : C L R Ls Rs LFE
Sampling rate : 48.0 kHz
Frame rate : 93.750 FPS (512 SPF)
Bit depth : 24 bits
Compression mode : Lossless
Stream size : 2.07 GiB (18%)
Title : Surround 5.1
Language : English
Default : Yes
Forced : No
Original source medium : Blu-ray

Audio #2
ID : 3
ID in the original source medium : 4353 (0x1101)
Format : AC-3
Format/Info : Audio Coding 3
Commercial name : Dolby Digital
Codec ID : A_AC3
Duration : 1 h 16 min
Bit rate mode : Constant
Bit rate : 640 kb/s
Channel(s) : 6 channels
Channel layout : L R C LFE Ls Rs
Sampling rate : 48.0 kHz
Frame rate : 31.250 FPS (1536 SPF)
Compression mode : Lossy
Stream size : 350 MiB (3%)
Title : Surround 5.1
Language : French
Service kind : Complete Main
Default : No
Forced : No
Original source medium : Blu-ray

Audio #3
ID : 4
ID in the original source medium : 4354 (0x1102)
Format : AC-3
Format/Info : Audio Coding 3
Commercial name : Dolby Digital
Codec ID : A_AC3
Duration : 1 h 16 min
Bit rate mode : Constant
Bit rate : 192 kb/s
Channel(s) : 2 channels
Channel layout : L R
Sampling rate : 48.0 kHz
Frame rate : 31.250 FPS (1536 SPF)
Compression mode : Lossy
Stream size : 105 MiB (1%)
Title : Stereo
Language : Spanish
Service kind : Complete Main
Default : No
Forced : No
Original source medium : Blu-ray

Audio #4
ID : 5
ID in the original source medium : 4355 (0x1103)
Format : AC-3
Format/Info : Audio Coding 3
Commercial name : Dolby Digital
Codec ID : A_AC3
Duration : 1 h 16 min
Bit rate mode : Constant
Bit rate : 192 kb/s
Channel(s) : 2 channels
Channel layout : L R
Sampling rate : 48.0 kHz
Frame rate : 31.250 FPS (1536 SPF)
Compression mode : Lossy
Stream size : 105 MiB (1%)
Title : Stereo
Language : Spanish
Service kind : Complete Main
Default : No
Forced : No
Original source medium : Blu-ray

Audio #5
ID : 6
ID in the original source medium : 4356 (0x1104)
Format : AC-3
Format/Info : Audio Coding 3
Commercial name : Dolby Digital
Codec ID : A_AC3
Duration : 1 h 16 min
Bit rate mode : Constant
Bit rate : 640 kb/s
Channel(s) : 6 channels
Channel layout : L R C LFE Ls Rs
Sampling rate : 48.0 kHz
Frame rate : 31.250 FPS (1536 SPF)
Compression mode : Lossy
Stream size : 350 MiB (3%)
Title : Surround 5.1
Language : Polish
Service kind : Complete Main
Default : No
Forced : No
Original source medium : Blu-ray

Text #1
ID : 7
ID in the original source medium : 4608 (0x1200)
Format : PGS
Codec ID : S_HDMV/PGS
Codec ID/Info : Picture based subtitle format used on BDs/HD-DVDs
Duration : 1 h 15 min
Bit rate : 39.2 kb/s
Count of elements : 2272
Stream size : 21.3 MiB (0%)
Language : English
Default : No
Forced : No
Original source medium : Blu-ray

Text #2
ID : 9
ID in the original source medium : 4609 (0x1201)
Format : PGS
Codec ID : S_HDMV/PGS
Codec ID/Info : Picture based subtitle format used on BDs/HD-DVDs
Duration : 1 h 16 min
Bit rate : 37.3 kb/s
Count of elements : 1958
Stream size : 20.3 MiB (0%)
Language : French
Default : No
Forced : No
Original source medium : Blu-ray

Text #3
ID : 11
ID in the original source medium : 4610 (0x1202)
Format : PGS
Codec ID : S_HDMV/PGS
Codec ID/Info : Picture based subtitle format used on BDs/HD-DVDs
Duration : 1 s 22 ms
Bit rate : 17.3 kb/s
Count of elements : 2
Stream size : 2.16 KiB (0%)
Language : Spanish
Default : No
Forced : No
Original source medium : Blu-ray

Text #4
ID : 13
ID in the original source medium : 4611 (0x1203)
Format : PGS
Codec ID : S_HDMV/PGS
Codec ID/Info : Picture based subtitle format used on BDs/HD-DVDs
Duration : 1 s 22 ms
Bit rate : 17.3 kb/s
Count of elements : 2
Stream size : 2.16 KiB (0%)
Language : Spanish
Default : No
Forced : No
Original source medium : Blu-ray

Text #5
ID : 15
ID in the original source medium : 4612 (0x1204)
Format : PGS
Codec ID : S_HDMV/PGS
Codec ID/Info : Picture based subtitle format used on BDs/HD-DVDs
Duration : 1 h 16 min
Bit rate : 28.1 kb/s
Count of elements : 1648
Stream size : 15.3 MiB (0%)
Language : Polish
Default : No
Forced : No
Original source medium : Blu-ray

Menu
00:00:00.000 : en:Chapter 01
00:10:52.360 : en:Chapter 02
00:19:42.181 : en:Chapter 03
00:30:32.288 : en:Chapter 04
00:40:07.988 : en:Chapter 05
00:51:15.906 : en:Chapter 06
01:01:13.461 : en:Chapter 07
01:12:12.244 : en:Chapter 08
01:13:47.881 : en:Chapter 09

.........................................................................................................................................



Hello everyone,
We are TAoE, a small team of passionate encoders who love encoding. We try our best to provide you with high quality releases.
If you would like to join the team just drop us a comment or send us a message.




.........................................................................................................................................


Files:

Scooby-Doo! Mask of the Blue Falcon (2012) (1080p BDRip x265 10bit EAC3 5.1 - Goki)[TAoE]
  • Scooby-Doo! Mask of the Blue Falcon (2012) (1080p BDRip x265 10bit EAC3 5.1 - Goki)[TAoE].mkv (2.0 GB)
  • Scooby-Doo! Mask of the Blue Falcon (2012) (1080p BDRip x265 10bit EAC3 5.1 - Goki)[TAoE].nfo (7.4 KB)
  • Scooby-Doo! Mask of the Blue Falcon (2012) (1080p BDRip x265 10bit EAC3 5.1 - Goki)[TAoE]-banner.jpg (74.8 KB)
  • Scooby-Doo! Mask of the Blue Falcon (2012) (1080p BDRip x265 10bit EAC3 5.1 - Goki)[TAoE]-clearlogo.png (158.1 KB)
  • Scooby-Doo! Mask of the Blue Falcon (2012) (1080p BDRip x265 10bit EAC3 5.1 - Goki)[TAoE]-disc.png (1.2 MB)
  • Scooby-Doo! Mask of the Blue Falcon (2012) (1080p BDRip x265 10bit EAC3 5.1 - Goki)[TAoE]-fanart.jpg (401.0 KB)
  • Scooby-Doo! Mask of the Blue Falcon (2012) (1080p BDRip x265 10bit EAC3 5.1 - Goki)[TAoE]-logo.png (158.1 KB)
  • Scooby-Doo! Mask of the Blue Falcon (2012) (1080p BDRip x265 10bit EAC3 5.1 - Goki)[TAoE]-poster.jpg (120.0 KB)
  • Scooby-Doo! Mask of the Blue Falcon (2012) (1080p BDRip x265 10bit EAC3 5.1 - Goki)[TAoE]-thumb.jpg (461.7 KB)

Comments

Code:

  • udp://tracker.coppersurfer.tk:6969/announce
  • udp://tracker.opentrackr.org:1337/announce
  • udp://tracker.torrent.eu.org:451/announce
  • udp://tracker.internetwarriors.net:1337/announce
  • http://tracker.opentrackr.org:1337/announce
  • udp://denis.stalker.upeer.me:6969/announce
  • udp://tracker.coppersurfer.tk:6969
  • udp://tracker.internetwarriors.net:1337
  • udp://9.rarbg.me:2720/announce
  • udp://explodie.org:6969/announce
  • udp://tracker.cyberia.is:6969/announce
  • udp://thetracker.org/announce
  • udp://open.demonii.si:1337/announce